-
 KDE-Apps.org Applications for the KDE-Desktop 
 GTK-Apps.org Applications using the GTK Toolkit 
 GnomeFiles.org Applications for GNOME 
 MeeGo-Central.org Applications for MeeGo 
 CLI-Apps.org Command Line Applications 
 Qt-Apps.org Free Qt Applications 
 Qt-Prop.org Proprietary Qt Applications 
 Maemo-Apps.org Applications for the Maemo Plattform 
 Java-Apps.org Free Java Applications 
 eyeOS-Apps.org Free eyeOS Applications 
 Wine-Apps.org Wine Applications 
 Server-Apps.org Server Applications 
 apps.ownCloud.com ownCloud Applications 
--
-
 KDE-Look.org Artwork for the KDE-Desktop 
 GNOME-Look.org Artwork for the GNOME-Desktop 
 Xfce-Look.org Artwork for the Xfce-Desktop 
 Box-Look.org Artwork for your Windowmanager 
 E17-Stuff.org Artwork for Enlightenment 
 Beryl-Themes.org Artwork for the Beryl Windowmanager 
 Compiz-Themes.org Artwork for the Compiz Windowmanager 
 EDE-Look.org Themes for your EDE Desktop 
--
-
 Debian-Art.org Stuff for Debian 
 Gentoo-Art.org Artwork for Gentoo Linux 
 SUSE-Art.org Artwork for openSUSE 
 Ubuntu-Art.org Artwork for Ubuntu 
 Kubuntu-Art.org Artwork for Kubuntu 
 LinuxMint-Art.org Artwork for Linux Mint 
 Arch-Stuff.org Art And Stuff for Arch Linux 
 Frugalware-Art.org Themes for Frugalware 
 Fedora-Art.org Artwork for Fedora Linux 
 Mandriva-Art.org Artwork for Mandriva Linux 
--
-
 KDE-Files.org Files for KDE Applications 
 OpenTemplate.org Documents for OpenOffice.org
 GIMPStuff.org Files for GIMP
 InkscapeStuff.org Files for Inkscape
 ScribusStuff.org Files for Scribus
 BlenderStuff.org Textures and Objects for Blender
 VLC-Addons.org Themes and Extensions for VLC
--
-
 KDE-Help.org Support for your KDE Desktop 
 GNOME-Help.org Support for your GNOME Desktop 
 Xfce-Help.org Support for your Xfce Desktop 
--
openDesktop.orgopenDesktop.org:   Applications   Artwork   Linux Distributions   Documents    LinuxDaily.com    Linux42.org    OpenSkillz.com   
 
Apps
News
Groups
Knowledge
Events
Forum
People
Jobs
Register
Login


Sponsoring


-
- Content .- Fans  . 

2PSPVideo

   0.2  

KDE Service Menu

Score 62%
2PSPVideo
zoom


2PSPVideo
zoom


Link:  http://
Downloads:  2151
Submitted:  Nov 23 2005
Updated:  Nov 25 2005

Description:

2PSPVideo is a KDE service menu which allows quick and easy conversion of video files to PlayStation Portable (PSP) compliant mp4 files. You will need to have ffmpeg installed. Once finished, the video will be saved into the root of your home directory as M4V00002.MP4.
As Im currently without a PSP I have not tested the converted files, so feedback is appreciated.
To install, just save the source code into /usr/share/apps/konqueror/servicemenus/ The video conversion option will then appear under the 'Actions' menu when you right-click a video file.




Changelog:

V0.1 - Initial, conversion to PSP compliant video

V0.2 - Added function to make PSP compliant thumbnail to go with the video.




LicenseGPL
Send to a friend
Subscribe
Other  Apps  from HenrikA
Report inappropriate content



-

 Thanks alot!

 
 by anz on: Nov 23 2005
 
Score 50%

Thank you! For gentoo user, do not forget to enable aac (USE="aac" emerge ffmpeg).
To get a thumbnail, just create another service menu:

Desktop Entry]
ServiceTypes=video/*
Actions=2PSPThumbnail

[Desktop Action 2PSPThumbnail]
Name=Convert to PSP Thumbnail
Icon=package_multimedia
Exec=konsole -e ffmpeg -y -i %u -f singlejpeg -ss 5 -vframes 1 -s 160x120 -an M4V00002.THM

Greetings!


Reply to this

-

 Re: Thanks alot!

 
 by HenrikA on: Nov 25 2005
 
Score 50%

Hmmm, for some strange reason singlejpeg-format doesn't work on my Debian-box. Thanks anyway, I'll include your thumbnal-generation in the servicemenu.


Reply to this

-

 Re: Re: Thanks alot!

 
 by tkoecker on: Feb 10 2006
 
Score 50%

It also works on debian if you change the format from "singlejpeg" to "mjpeg".


Reply to this

-

 unknown output forma

 
 by Linuxglider on: Jul 17 2006
 
Score 50%

I get this message:

ffmpeg version 0.4.9-pre1, build 4718, Copyright (c) 2000-2004 Fabrice Bellard
built on Jan 11 2006 02:12:42, gcc: 3.3.1 (Mandrake Linux 9.2 3.3.1-2mdk)
Input #0, avi, from '/mnt/sda1/Videos/quake movies/back_4_good.avi':
Duration: 00:18:10.6, bitrate: 1533 kb/s
Stream #0.0: Video: msmpeg4, 384x286, 29.97 fps
Stream #0.1: Audio: adpcm_ms, 22050 Hz, mono, 89 kb/s
Unknown input or output format: psp

can someone help me? ffmpeg and faac is installed what can do?
greetings
linuxglider


Reply to this

-

 filename format

 
 by gaaruto on: Sep 15 2006
 
Score 50%

Works well to convert but no file name when i browse into my psp... (in fact "-" file name :( )

ffmpeg can write a file description into a mp4 ?


Reply to this

-

 Re: filename format

 
 by gaaruto on: Sep 15 2006
 
Score 50%

ok it's done !
just use capital letters and boot with devhook under 2.71...


Reply to this

-
.

 installing

 
 by stond on: Feb 21 2008
 
Score 50%

how do i install this I am a noob


Reply to this

Add commentBack






-
-
How do you like Plasma 5?
 The best KDE Desktop ever.
 Definitely a nice improvement.
 Not decided yet. Haven't tried it yet.
 I do not like some of the changes.
 KDE is taking the wrong way.
 I am still sticking with KDE 3.5.
 I have no opinion, but wanted to vote anyway.

resultmore
 
 
 Who we are
Contact
More about us
Frequently Asked Questions
Register
Twitter
Blog
Explore
Apps
Jobs
Knowledge
Events
People
Updates on identi.ca
Updates on Twitter
Facebook App
Content RSS   
Events RSS   

Participate
Groups
Forum
Add App
Public API
About KDE-Apps.org
Legal Notice
Spreadshirt Shop
CafePress Shop
Advertising
Sponsor us
Report Abuse
 

Copyright 2003-2014 KDE-Apps.org Team  
All rights reserved. KDE-Apps.org is not liable for any content or goods on this site.
All contributors are responsible for the lawfulness of their uploads.
KDE and K Desktop Environment are trademarks of KDE e.V.